Friday, October 31, 2014

NEW: Aerosmith live in Clarkston 2014 - 2DVD - September 9

Aerosmith
Sept.9,2014
DTE Energy Music Theatre,
Clarkston, MI, USA

Panasonic DMC-ZS8>PC>You in HD
Master Copy jbarrowsrn

Train Kept A-Rollin'
Eat the Rich
Love in an Elevator
Cryin'
Livin' on the Edge
Kings and Queens
Toys in the Attic
Jaded
Drum Solo
Rag Doll
Stop Messin' Around
Mama Kin  (with Slash)
I Don't Want to Miss a Thing
No More No More
Come Together
Walk This Way
Encore:
Dream On
(snippets of "You Really Got a … more)
Sweet Emotion (MISSiNG))

OK, I was really hoping someone would post
the streaming video from Yahoo for this but
it has not turned up anywhere.
My seats were in the pavillion left side
and far back but still was able to capture
an ok video.  As stated in previous videos,
my audio is never that great but this is all
that is out there so take it or leave it!
This was the most crowDed I have ever seen DTE.
Complete nightmare getting to seats and parking
and such.  I did leave before last song as I did
have a 3 1/2 hour drive home and have heard horror
stories of people not getting out for hours and
hours after the show.  Fine for Grateful Dead
but not Aerosmith!

Format                                   : MPEG-4
Format profile                           : QuickTime
Codec ID                                 : qt
File size                                : 1.79 GiB
Overall bit rate mode                    : Variable
Overall bit rate                         : 22.9 Mbps

Writing library                          : pana

Video
ID                                       : 1
Format                                   : JPEG
Codec ID                                 : jpeg
Bit rate mode                            : Variable
Bit rate                                 : 22.6 Mbps
Width                                    : 1 280 pixels
Height                                   : 720 pixels
Display aspect ratio                     : 16:9
Frame rate mode                          : Constant
Frame rate                               : 30.000 fps
Color space                              : YUV
Chroma subsampling                       : 4:2:0
Bit depth                                : 8 bits
Compression mode                         : Lossy
Bits/(Pixel*Frame)                       : 0.817
Stream size                              : 1.77 GiB (99%)


Audio
Format                                   : PCM
Format settings, Endianness              : Big
Format settings, Sign                    : Signed
Codec ID                                 : twos
Bit rate mode                            : Constant
Bit rate                                 : 256 Kbps
Channel(s)                               : 1 channel
Sampling rate                            : 16.0 KHz
Bit depth                                : 16 bits
Stream size                              : 20.6 MiB (1%)

Download part 1 here
Download part 2 here
Download part 3 here
Download part 4 here
Download part 5 here
Download part 6 here
Download part 7 here
Download part 8 here
Download part 9 here
Download part 10 here
Download part 11 here
Download part 12 here
Download part 13 here
Download part 14 here
Download part 15 here
Download part 16 here