Wednesday, November 5, 2014

NEW: Aerosmith live in Largo 1977 - 1DVD - pro-shot - December 22

Aerosmith - 1977-12-22 - Capitol Center, Largo, MD
Source: VHS
Pro-shot

Setlist:
Back In The Saddle
S.O.S. (Too Bad)
Big Ten Inch Record
I Wanna Know Why
Lord Of The Thighs
Lick And A Promise
Get It Up
Walk This Way
Sweet Emotion
Dream On
Walkin' The Dog
Mama Kin
Draw The Line
Same Old Song and Dance
Train Kept A Rollin'
Milk Cow Blues
Toys In The Attic

With artwork

Download part 1 here
Download part 2 here
Download part 3 here
               

Friday, October 31, 2014

NEW: Aerosmith live in Clarkston 2014 - 2DVD - September 9

Aerosmith
Sept.9,2014
DTE Energy Music Theatre,
Clarkston, MI, USA

Panasonic DMC-ZS8>PC>You in HD
Master Copy jbarrowsrn

Train Kept A-Rollin'
Eat the Rich
Love in an Elevator
Cryin'
Livin' on the Edge
Kings and Queens
Toys in the Attic
Jaded
Drum Solo
Rag Doll
Stop Messin' Around
Mama Kin  (with Slash)
I Don't Want to Miss a Thing
No More No More
Come Together
Walk This Way
Encore:
Dream On
(snippets of "You Really Got a … more)
Sweet Emotion (MISSiNG))

OK, I was really hoping someone would post
the streaming video from Yahoo for this but
it has not turned up anywhere.
My seats were in the pavillion left side
and far back but still was able to capture
an ok video.  As stated in previous videos,
my audio is never that great but this is all
that is out there so take it or leave it!
This was the most crowDed I have ever seen DTE.
Complete nightmare getting to seats and parking
and such.  I did leave before last song as I did
have a 3 1/2 hour drive home and have heard horror
stories of people not getting out for hours and
hours after the show.  Fine for Grateful Dead
but not Aerosmith!

Format                                   : MPEG-4
Format profile                           : QuickTime
Codec ID                                 : qt
File size                                : 1.79 GiB
Overall bit rate mode                    : Variable
Overall bit rate                         : 22.9 Mbps

Writing library                          : pana

Video
ID                                       : 1
Format                                   : JPEG
Codec ID                                 : jpeg
Bit rate mode                            : Variable
Bit rate                                 : 22.6 Mbps
Width                                    : 1 280 pixels
Height                                   : 720 pixels
Display aspect ratio                     : 16:9
Frame rate mode                          : Constant
Frame rate                               : 30.000 fps
Color space                              : YUV
Chroma subsampling                       : 4:2:0
Bit depth                                : 8 bits
Compression mode                         : Lossy
Bits/(Pixel*Frame)                       : 0.817
Stream size                              : 1.77 GiB (99%)


Audio
Format                                   : PCM
Format settings, Endianness              : Big
Format settings, Sign                    : Signed
Codec ID                                 : twos
Bit rate mode                            : Constant
Bit rate                                 : 256 Kbps
Channel(s)                               : 1 channel
Sampling rate                            : 16.0 KHz
Bit depth                                : 16 bits
Stream size                              : 20.6 MiB (1%)

Download part 1 here
Download part 2 here
Download part 3 here
Download part 4 here
Download part 5 here
Download part 6 here
Download part 7 here
Download part 8 here
Download part 9 here
Download part 10 here
Download part 11 here
Download part 12 here
Download part 13 here
Download part 14 here
Download part 15 here
Download part 16 here
                         

Monday, August 11, 2014

NEW: Aerosmith with Jimmy Page live in London 1990 - 1DVD - live & rehearsals

Jimmy Page with Aerosmith
Marquee Club & Castle Donnington, 1dvd by Archive Master Series (#AMS 012)


lineage: original dvd > HD > You


tracklist:

August 18, 1990
Donington Park, Castle Donington, England, UK

Backstage (Page, Perry & Tyler)
The Train Kept A Rollin'


August 20, 1990
Marquee Club, London, England, UK
(rehearsals)

Rattlesnake Shake
Big Ten Inch
The Train Kept A Rollin'
I Ain't Got You
Mother Popcorn
Let Me Love You
All Your Love
Immigrant Song (3 takes)
Think About It (2 takes)
Red House


August 20, 1990
Marquee Club, London, England, UK

I Ain't Got You
Think About It
Red House
Immigrant Song
The Train Kept A Rollin'

Download part 1 here
Download part 2 here
Download part 3 here
Download part 4 here
Download part 5 here
                 

Friday, August 1, 2014

NEW: Aerosmith live in Oakland 1979 - 1DVD - pro-shot - July 21

AEROSMITH

General info:
Date:  1979-07-21
Location:  Oakland
Venue:  Oakland Stadium
Tour:  Night In The Ruts

Dvd type: Pro shot
Audio quality: Codec: AC3
Audio properties: Other: 48000Hz, 192 kb/s (CBR), stereo (2/0)

Video properties:  Codec: MPEG2
Format: NTSC
Resolution: 704 x 480
FPS: 29.970

Track list:
1. Back In The Saddle
2. Train Kept A Rollin'
3. Mama Kin
4. Big Ten Inch Record
5. Think About It
6. Seasons Of Wither
7. Bone To Bone (Coney Island White Fish Boy)
8. Lord Of The Thighs
9. Sweet Emotion
10. Get The Lead Out
11. Walk This Way
12. Draw The Line
13. Reefer Head Woman
14. Lick And A Promise
15. Come Together
16. Toys In The Attic

Download part 1 here
Download part 2 here
Download part 3 here
Download part 4 here
Download part 5 here
                     

NEW: Aerosmith live in Houston 1977 - 1DVD - pro-shot - June 25

Band: Aerosmith
Date: 1977-06-25
Location: Houston TX USA
Venue: The Summit
Tour: Draw The Line

Type: Pro
Duration: 1h22m
Chapters Available: Yes
Amount Of Cameras: Many
Amount Of DVDs: 1 (4,28 GB)
Audio Quality: (3)***
Audio Properties: Codec: MPEG-1 Layer 2
Other: 48000Hz, 224 kb/s, Stereo
Video Quality: (3)***
Video Properties: Codec: MPEG2
Format: NTSC
Resolution: 720 x 480
FPS: 29.970
Display Aspect Ratio: 1.333 (4:3)

lineage: US TV broadcast > unknown recording and transfering equipment(sourced on low to mid generation VHS tape) > DVD files set > my DVD files set (> You)
Artwork included

Track List:
01. Back In The Saddle
02. Mama Kin
03. S.O.S. (Too Bad)
04. Big Ten Inch Record
05. Lord Of The Thighs
06. Dream On
07. Lick And A Promise
08. Adam's Apple
09. Sweet Emotion
10. Sick As A Dog
11. Draw The Line
12. Walk This Way
13. Rattlesnake Shake
14. Same Old Song And Dance
15. Toys In The Attic
16. Train Kept A Rollin'
Personal:
Steven Tyler: Vocals
Joe Perry: Guitar, Vocals
Brad Whitford: Guitar
Tom Hamilton: Bass
Joey Kramer: Drums

Download part 1 here
Download part 2 here
Download part 3 here
Download part 4 here
Download part 5 here
                       

Tuesday, July 29, 2014

NEWS NEWS NEWS NEWS NEWS

I have removed all inactive posts. Will upload a lot of DVDs the next couple of weeks! So keep an eye on World of Aerosmith Bootlegs